<svg xmlns="http://www.w3.org/2000/svg"><defs/><defs><font id="nikkei" horiz-adv-x="1043.189"><font-face ascent="1000" descent="0" font-family="nikkei"/><glyph d="M1562.5 1775a12.5 12.5 0 0125 0 12.5 12.5 0 01-25 0M547.083 796.25h-31.25v55.417c0 8.75-7.083 15.833-15.833 15.833-8.333 0-15.833-7.083-15.833-15.833v-71.25c0-8.75 7.083-15.417 15.833-15.417h47.083c8.75 0 15.417 7.083 15.417 15.417.417 8.75-6.667 15.833-15.417 15.833zM971.25 647.083H722.5v330.834l-90-32.5H367.917l-90.417 32.5V647.083H29.167V0H971.25v647.083zm-768.333-522.5H135v118.75h67.917v-118.75zm.416 268.334h-67.5v118.75h67.5v-118.75zm220.417 0h-67.5v118.75h67.917v-118.75h-.417zM500 665.833c-63.333 0-114.583 51.25-114.583 114.167 0 63.333 51.25 114.583 114.583 114.583S614.583 843.333 614.583 780c0-62.5-51.25-114.167-114.583-114.167zm144.167-272.916H576.25v118.75h67.917v-118.75zm-220.417-267.5h-67.5v118.75h67.917v-118.75h-.417zm220.417 0H576.25v118.75h67.917v-118.75zm152.5 386.25h67.916v-118.75h-67.916v118.75zm68.75-387.084H797.5v118.75h67.917v-118.75z" glyph-name="opencampus" horiz-adv-x="1000" unicode=""/><glyph d="M990.033 59.8v877.077H770.764V59.801H674.42v588.04H458.472V59.8h-96.346v408.638H142.857V59.8H76.412v973.422H-9.967V-23.256h1059.8v83.057z" glyph-name="bar-graph-up" horiz-adv-x="1043.189" unicode=""/><glyph d="M913.621 1009.967c0 6.644 0 13.289-6.644 19.933-6.645 3.323-13.29 6.645-19.934 3.323H152.824c-6.645 0-13.29 0-19.934-6.645-3.322-3.322-3.322-9.967-3.322-16.611V3.322a29.776 29.776 0 0129.9-29.9h727.575a29.776 29.776 0 0129.9 29.9l-3.322 1006.645c0-3.322 0 0 0 0zm-76.412-19.934l-66.445-73.09H269.103c-9.967 9.967-39.867 46.512-66.445 73.09h634.551zm29.9-966.777H176.08v930.232l63.124-69.767c6.644-9.967 16.611-13.29 26.578-13.29h514.95c9.967 0 19.933 3.323 26.578 9.968 0 0 33.223 39.867 63.123 69.767l-3.322-926.91zM501.662 777.409h-235.88c-13.29 0-26.578-9.967-26.578-26.578V647.84c0-13.29 9.966-26.579 26.578-26.579h235.88c13.29 0 26.578 13.29 26.578 26.579v102.99c0 16.61-13.289 26.578-26.578 26.578z" glyph-name="request" horiz-adv-x="1043.189" unicode=""/><glyph d="M342.193 764.12H119.6c-13.289 0-23.255-9.967-23.255-23.256v-99.668c0-13.289 9.966-23.256 23.255-23.256h222.592c13.289 0 23.256 9.967 23.256 23.256v99.668c3.322 13.289-9.967 23.256-23.256 23.256zm707.64-255.814c0 6.644 0 13.289-3.321 16.61-3.323 6.645-9.967 6.645-16.612 6.645H737.542V983.39c0 6.644-3.323 13.289-6.645 16.611s-9.967 6.645-16.611 6.645H13.289c-6.644 0-13.289 0-16.611-6.645-6.645-3.322-6.645-9.967-6.645-16.611V29.9c0-13.289 13.29-26.578 26.578-26.578h691.03c13.29 0 26.578 13.29 26.578 26.578v53.156h289.037c13.289 0 26.578 13.29 26.578 26.579v398.67zm-83.056-19.934L714.286 285.714c-39.867 29.9-176.08 142.857-252.492 202.658h504.983zM661.13 963.455l-63.123-69.767H122.924c-9.967 9.966-36.545 43.19-59.801 69.767H661.13zm29.9-913.621H33.223v880.399l59.8-66.446c6.645-9.966 16.612-13.289 26.578-13.289h485.05c9.967 0 19.934 3.323 23.256 9.967 0 0 33.223 36.545 59.8 66.445V531.561H401.994c-6.644 0-13.289-3.322-16.61-6.644-3.323-3.322-6.645-9.967-3.323-16.611V112.957c0-13.29 13.289-26.578 26.578-26.578H691.03V49.834zm315.615 79.734H425.249v335.548l272.425-222.591c9.967-9.967 26.578-9.967 36.545 0 0 0 192.691 156.146 272.426 222.591V129.568z" glyph-name="request-mail" horiz-adv-x="1043.189" unicode=""/><glyph d="M670.968 800L203.226 541.935c-9.678-6.451-22.58-6.451-32.258 0L6.452 632.258c-9.678 6.452-16.13 0-16.13-9.677V377.419c0-9.677 6.452-12.903 16.13-9.677l164.516 90.323c9.677 6.451 22.58 6.451 32.258 0L670.968 200c9.677-6.452 16.129 0 16.129 9.677v580.646c0 12.903-9.678 16.129-16.13 9.677zm322.58-280.645H816.13c-9.677 0-19.355-9.678-19.355-19.355s9.678-19.355 19.355-19.355h177.42c9.677 0 19.354 9.678 19.354 19.355s-9.677 19.355-19.355 19.355zM780.645 700l151.613 90.323c9.677 6.451 12.903 19.354 6.452 29.032-6.452 9.677-19.355 12.903-29.033 6.451l-151.612-90.322c-9.678-6.452-12.904-19.355-6.452-29.032 6.452-6.452 19.355-9.678 29.032-6.452zm151.613-490.323L780.645 300c-9.677 6.452-22.58 3.226-29.032-6.452-6.452-9.677-3.226-22.58 6.452-29.032l151.612-90.322c9.678-6.452 22.581-3.226 29.033 6.451 6.451 9.678 3.225 22.58-6.452 29.032z" glyph-name="speaker" horiz-adv-x="1000" unicode=""/><glyph d="M500 1016.129c-280.645 0-512.903-229.032-512.903-512.903S216.129-9.677 500-9.677s512.903 229.032 512.903 512.903S783.871 1016.129 500 1016.129zm0-993.548c-264.516 0-480.645 216.129-480.645 480.645S235.484 987.096 500 987.096s480.645-216.128 480.645-480.644S767.742 22.58 500 22.58zm345.161 322.58c-61.29 77.42-106.451 170.968-141.935 274.194h87.097c19.354 0 35.483 6.451 45.16 16.129 6.452 6.451 9.678 19.355 9.678 35.484 0 22.58-3.226 35.484-12.903 41.935-9.677 9.678-22.58 12.903-41.935 12.903H654.839v77.42c0 16.129-6.452 32.258-16.13 38.71-9.677 9.677-22.58 16.129-41.935 16.129-16.129 0-29.032-6.452-38.71-16.13-9.677-9.677-16.129-22.58-16.129-38.71v-74.193H412.903c-19.355 0-32.258-3.226-41.935-12.903-9.678-6.452-12.903-22.58-12.903-41.935s3.225-32.259 12.903-41.936c9.677-9.677 22.58-12.903 41.935-12.903h77.42c-16.13-54.839-35.484-100-54.84-132.258-16.128-32.258-48.386-77.42-93.548-135.484-6.451-6.452-9.677-9.678-9.677-16.13v322.582c16.13 35.483 25.807 74.193 35.484 112.903 3.226 9.677 6.452 19.355 6.452 32.258 0 22.58-6.452 35.484-22.581 41.935-12.903 9.678-29.032 12.904-48.387 12.904s-29.032-9.678-35.484-32.259c-29.032-106.451-70.968-193.548-119.355-267.741-6.452-12.904-9.677-22.581-9.677-32.259 0-16.129 6.451-25.806 16.129-35.483 9.677-9.678 25.806-12.904 45.161-12.904 9.677 0 19.355 3.226 25.806 6.452V219.355c0-19.355 3.226-32.258 12.904-38.71 6.451-9.677 19.355-12.903 35.484-12.903 19.354 0 32.258 3.226 38.71 12.903 9.677 6.452 16.128 19.355 16.128 38.71v83.87c3.226-6.45 6.452-12.902 12.903-19.354 9.678-12.903 25.807-19.355 45.162-19.355s32.258 6.452 41.935 22.58c29.033 35.485 61.29 80.646 90.323 138.71l19.355 38.71V216.13c0-12.903 3.225-25.806 12.903-35.484 9.677-12.903 22.58-19.355 41.935-19.355 22.581 0 35.484 6.452 45.162 19.355 6.451 9.678 9.677 19.355 9.677 35.484v264.516c3.226-12.903 6.452-22.58 9.678-35.484 29.032-70.967 58.064-125.806 83.87-164.516 12.904-16.129 29.033-22.58 48.388-22.58s35.483 6.451 45.16 19.354c9.678 9.678 16.13 22.581 16.13 35.484 9.677 6.452 3.226 19.355-6.452 32.258z" glyph-name="closed" horiz-adv-x="1000" unicode=""/><glyph d="M234.375 175l631.25 631.25L671.875 1000 40.625 368.75 0 134.375 234.375 175zM0 103.125V0h881.25v103.125H0z" glyph-name="lesson" horiz-adv-x="881.25" unicode=""/><glyph d="M877.076 13.289H119.601v634.552l6.645 6.644h322.259c6.645 0 13.289 6.645 13.289 13.29v322.258l6.645 6.645h408.637V873.754c6.645 3.322 16.612 6.645 26.578 6.645h6.645v136.212c0 9.967-6.645 16.612-16.611 16.612H461.794c-3.322 0-9.967-3.323-13.289-6.645L89.701 667.774c-3.322-3.322-6.645-6.644-6.645-13.289V-6.645c0-9.966 6.645-16.61 16.612-16.61h794.02c9.966 0 16.611 6.644 16.611 16.61v498.34c-9.967-9.967-23.256-19.934-33.223-29.901V13.289zm172.758 657.807L913.62 830.565l-3.322 3.322c-6.645 6.645-13.289 6.645-19.934 3.322l-9.966-9.966-548.173-461.794c-6.645-6.645-13.29-16.612-16.611-23.256l-86.38-212.625c-3.321-6.644 0-13.289 9.968-9.967l232.558 49.834c6.644 3.322 19.933 6.645 26.578 13.29l382.06 325.58 33.222 29.901 136.213 112.957c3.322 3.322 3.322 13.289 0 19.933zm-598.007-485.05l-126.246-26.578c-6.644-3.322-19.933 3.323-23.255 6.645l-16.612 16.611c-6.644 6.645-6.644 16.612-3.322 23.256l46.512 109.635c3.322 6.644 13.289 13.289 19.933 9.966l29.9-6.644c6.645-3.322 19.934-9.967 23.256-13.29l43.19-49.833c6.644-6.645 9.967-16.611 13.289-26.578l3.322-26.578c3.322-6.645 0-13.29-9.967-16.611zM983.39 694.353l-69.768-59.8-33.222-29.9-395.35-332.227c-6.644-6.644-16.61-3.322-19.933 3.323l-43.19 49.833c-6.644 6.645-3.321 16.612 3.323 19.934l451.827 382.06 33.223 29.9 9.967 6.645c6.644 6.644 16.611 3.322 19.933-3.323l43.19-49.834c6.644-3.322 6.644-13.289 0-16.61z" glyph-name="exam" horiz-adv-x="1043.189" unicode=""/><glyph d="M774.086 720.93v272.425H269.103V720.93H-13.289V13.29h1063.123v707.64H774.086zM312.292 112.957H99.668v215.947h215.947V112.957h-3.323zm0 292.359H99.668v215.946h215.947V405.316h-3.323zm318.937-292.36H415.282v215.948H631.23V112.957zm0 292.36H415.282v215.946H631.23V405.316zM521.595 697.674c-63.123 0-116.28 53.157-116.28 116.28s53.157 119.6 116.28 119.6S637.874 880.4 637.874 817.277s-49.834-119.602-116.28-119.602zm425.249-584.717H730.897v215.947h215.947V112.957zm0 292.359H730.897v215.946h215.947V405.316z" glyph-name="experience" horiz-adv-x="1043.189" unicode=""/><glyph d="M926.91 664.452c46.512 26.578 79.735 76.412 79.735 132.89 0 83.057-66.446 149.502-149.502 149.502-43.19 0-83.057-16.611-109.635-46.512H-6.645v-677.74h691.03c29.9-109.635 96.346-186.047 169.436-186.047 102.99 0 189.368 146.18 189.368 325.581 3.323 136.213-46.511 252.492-116.279 302.326zm-215.947-96.346l-172.757 205.98 156.146-242.525c-16.611-49.833-26.578-106.312-26.578-169.435 0-43.19 3.322-83.056 13.29-122.923H13.288v641.196h720.93c-16.611-23.256-26.578-53.156-26.578-86.38 0-56.477 33.223-106.311 79.734-132.89-29.9-19.933-56.478-53.156-76.412-93.023zM262.458 794.02H102.99v-36.545h159.468v36.545zm26.579-69.768H73.09v-36.544h215.947v36.544zm99.667-3.322c-9.966 29.9-23.255 56.479-39.867 83.057l-33.222-13.29c13.289-26.577 26.578-56.478 36.544-83.056l36.545 13.29zm136.213 76.412l-39.867 16.611-39.867-126.245H305.648V524.917h46.511V501.66c0-39.867-6.644-69.767-16.61-89.7-13.29-29.901-36.546-53.157-69.768-69.768 13.289-9.967 23.256-19.934 29.9-33.223 33.223 23.256 56.478 49.834 73.09 79.734 13.289 33.223 19.933 69.768 19.933 112.957v26.578h49.834V375.415c0-33.222 16.612-53.156 49.834-53.156h43.19c16.61 0 26.578 6.645 33.222 16.611 6.645 13.29 13.29 33.223 16.611 63.123-16.61 3.323-29.9 6.645-39.867 13.29 0-23.256-3.322-39.868-3.322-46.512-3.322-9.967-6.645-13.29-13.29-13.29h-33.222c-9.966 0-16.61 6.645-16.61 16.612v152.824h69.766V691.03h-56.478l36.545 106.312zM501.66 654.485v-89.7H345.515v89.7h156.146zM102.99 617.94h159.468v36.545H102.99V617.94zm-3.322-302.325h36.545v29.9h86.378v-23.256h36.545v172.758H99.668V315.615zm36.545 146.179h86.378V382.06h-86.378v79.734zm-33.223 79.734h159.468v36.545H102.99v-36.545z" glyph-name="briefing" horiz-adv-x="1043.189" unicode=""/><glyph d="M1049.834 624.585l-338.87 59.8-189.37 322.26-189.368-322.26-338.87-59.8 222.59-299.004L196.014 3.322l325.582 102.99 325.58-102.99-23.256 322.26 225.914 299.003zm-757.475-83.057c56.478 29.9 99.668 59.8 132.89 93.023 16.611 16.612 23.256 23.256 29.9 23.256s13.29-3.322 23.256-9.966c6.645-6.645 9.967-13.29 9.967-19.934 0-9.967-6.644-19.934-23.256-36.545-6.644-6.644-16.611-16.611-36.545-33.222V445.183c0-6.645-3.322-13.29-9.966-16.612s-13.29-6.644-19.934-6.644c-6.644 0-13.289 3.322-19.933 6.644-6.645 3.323-9.967 9.967-9.967 16.612v69.767c-9.967-6.644-19.934-13.289-29.9-16.611-16.612-6.645-26.579-9.967-33.223-9.967-9.967 0-16.611 3.322-19.934 9.967s-6.644 13.289-6.644 23.256c0 6.644 3.322 13.289 13.289 19.933zm23.256-156.146c9.966 0 33.222-13.289 66.445-36.545 6.644-3.322 6.644-9.967 6.644-19.933 0-9.967-3.322-16.612-9.966-23.256s-13.29-9.967-19.934-9.967c-9.967 0-33.223 9.967-66.445 33.223-9.967 6.644-13.29 13.289-13.29 23.255 0 23.256 13.29 33.223 36.546 33.223zm159.468-129.568c-16.611-16.611-29.9-29.9-43.19-39.867-13.288-9.967-33.222-19.934-53.155-29.9-26.579-13.29-46.512-16.612-59.801-16.612-9.967 0-16.611 3.322-23.256 9.967-6.644 6.645-9.967 13.289-9.967 23.256 0 6.644 3.323 13.289 6.645 16.611 3.322 3.322 9.967 6.645 16.611 9.967 29.9 9.967 56.479 19.933 76.412 36.545 19.934 13.289 39.867 33.222 56.478 59.8 6.645 9.967 13.29 13.29 23.256 13.29s16.612-3.323 23.256-9.967c6.645-6.645 9.967-13.29 9.967-23.256 3.322-13.29-3.322-29.9-23.256-49.834zm222.591 382.06c3.323 3.322 6.645 3.322 9.967 3.322 6.645 0 9.967-3.322 13.29-6.645l13.288-19.933c3.323-3.322 3.323-6.645 3.323-9.967 0-9.967-3.323-13.289-13.29-13.289-6.644 0-9.966 3.322-13.289 6.645l-13.289 19.933c-3.322 3.322-3.322 6.645-3.322 9.967-3.322 3.322 0 6.644 3.322 9.967zm39.868-382.06c-6.645-6.645-13.29-9.967-23.256-9.967-3.323 0-26.578 6.645-66.445 19.934v-73.09c0-9.967-3.323-16.611-9.967-19.934-6.645-3.322-13.29-6.644-23.256-6.644-9.967 0-16.611 3.322-19.934 6.644-6.644 3.323-9.966 9.967-9.966 19.934v176.08c0 6.644 3.322 13.289 9.966 19.933 6.645 3.323 13.29 6.645 19.934 6.645 9.967 0 16.611-3.322 23.256-6.645s9.967-9.966 9.967-19.933v-39.867l73.09-23.256c6.644-3.322 13.288-6.645 16.61-9.967 3.323-6.644 6.645-9.967 6.645-16.611 3.322-9.967 0-19.934-6.644-23.256zm23.255 202.658c-6.644-6.645-16.611-9.967-23.255-9.967s-9.967 0-13.29 3.322c-13.289 9.967-39.867 36.545-79.734 79.734-3.322 3.323-6.644 9.967-9.967 13.29-6.644 6.644-9.966 9.966-13.289 9.966s-6.644-3.322-9.966-13.289c-3.323-6.644-6.645-9.967-9.967-16.611-9.967-13.29-13.29-19.934-13.29-19.934-6.644-6.644-13.288-9.966-19.933-9.966s-16.611 3.322-23.256 9.966-9.966 13.29-9.966 19.934c0 6.644 6.644 19.933 19.933 39.867l29.9 39.867c9.967 13.29 23.256 19.934 39.868 19.934s33.222-6.645 43.19-19.934c16.61-16.611 29.9-33.222 46.51-53.156 19.934-19.934 36.546-36.545 49.835-46.512 6.644-6.644 9.966-13.289 9.966-23.255 0-9.967-3.322-16.612-13.289-23.256zm0 136.212c-6.644 0-9.966 3.323-13.289 6.645l-13.289 19.933c-3.322 3.323-3.322 6.645-3.322 9.967s0 6.645 3.322 9.967 6.645 3.322 9.967 3.322c6.645 0 9.967-3.322 13.29-6.644l13.288-19.934c3.322-3.322 3.322-6.644 3.322-9.967 3.323-6.644-3.322-13.289-13.289-13.289z" glyph-name="event" horiz-adv-x="1043.189" unicode=""/><glyph d="M791.277 682.243H56.075l323.987-320.872H56.075v-90.343h735.202v90.343H467.29z" glyph-name="allow-down-stop" horiz-adv-x="850.467" unicode=""/><glyph d="M791.895 316.378L468.758 639.515h323.106v88.307H57.283v-88.307H380.45L57.314 316.41z" glyph-name="allow-up-stop" horiz-adv-x="849.24" unicode=""/><glyph d="M564.073 867.306V544.2L240.998 867.306l-.031-734.581 323.106 323.137V132.725h88.307v734.581z" glyph-name="allow-right-stop" horiz-adv-x="849.24" unicode=""/><glyph d="M608.242 867.275L285.167 544.2v323.075H196.86V132.694h88.307V455.8l323.044-323.106z" glyph-name="allow-left-stop" horiz-adv-x="849.24" unicode=""/><glyph d="M868.75 653.125L500 284.375l-368.75 368.75z" glyph-name="allow-down" horiz-adv-x="1000" unicode=""/><glyph d="M57.314 316.41l367.275 367.243 367.306-367.275z" glyph-name="allow-up" horiz-adv-x="849.24" unicode=""/><glyph d="M240.998 867.306l367.244-367.275-367.275-367.306z" glyph-name="allow-right" horiz-adv-x="849.24" unicode=""/><glyph d="M608.21 132.694L240.968 500l367.275 367.275z" glyph-name="allow-left" horiz-adv-x="849.24" unicode=""/><glyph d="M566.343 566.343c-51.78 51.78-51.78 139.159 0 190.939L783.172 974.11C656.958 1025.89 508.09 1000 404.53 896.44 300.97 796.117 278.317 644.013 326.86 517.8L38.835 229.772c-51.78-51.78-51.78-139.158 0-190.938s139.159-51.78 190.938 0L517.8 326.861c126.214-51.78 275.081-25.89 378.641 77.67s126.214 252.427 77.67 378.64L757.282 566.344c-51.78-51.78-135.923-51.78-190.939 0z" glyph-name="setting" horiz-adv-x="1000" unicode=""/><glyph d="M12.618-6.31h170.347v1009.465H12.618V-6.31zm264.985 0H447.95v1009.465H277.603V-6.31zm261.83 0h170.346v1009.465H539.432V-6.31zm264.983 1012.62V-3.156h170.347V1006.31c0-3.154-170.347-3.154-170.347 0z" glyph-name="rows" horiz-adv-x="990.536" unicode=""/><glyph d="M0 0h753.247c0 237.013-103.896 435.065-250 512.987 81.169 45.455 133.117 129.87 133.117 227.273 0 142.857-116.883 259.74-259.74 259.74s-259.74-116.883-259.74-259.74c0-97.403 55.194-181.818 133.116-227.273C103.896 435.065 0 233.767 0 0z" glyph-name="person" horiz-adv-x="753.247" unicode=""/><glyph d="M833.856 551.724H504.702l184.953 188.088h-379.31l184.953-184.953H166.144c-28.213 0-53.291-21.944-53.291-53.292s21.943-53.291 53.291-53.291h329.154L310.345 263.323h379.31L504.702 448.276h329.154c28.213 0 53.291 21.943 53.291 53.291s-25.078 50.157-53.291 50.157zM498.433 1000C222.57 1000 0 774.295 0 501.567 0 225.705 222.57 3.135 498.433 3.135c275.862 0 498.432 222.57 498.432 498.432C1000 774.295 774.295 1000 498.433 1000zm0-946.708c-247.65 0-448.276 200.626-448.276 448.275 0 247.65 200.627 448.276 448.276 448.276s448.275-200.627 448.275-448.276S746.082 53.292 498.433 53.292z" glyph-name="panel-close" horiz-adv-x="1000" unicode=""/><glyph d="M836.99 551.724H166.145c-28.213 0-53.291-25.078-53.291-53.291 0-28.214 21.943-53.292 53.291-53.292h670.847c28.213 0 53.291 25.078 53.291 53.292s-25.078 53.291-53.291 53.291zM501.568 833.856L310.345 642.633H692.79L501.567 833.856zm0-667.712L692.79 357.367H310.345l191.222-191.223zm0 833.856C225.705 1000 0 774.295 0 498.433 0 222.57 225.705-3.135 501.567-3.135c275.862 0 501.568 225.706 501.568 501.568C1000 774.295 777.429 1000 501.567 1000zm0-949.843c-247.649 0-448.275 200.627-448.275 448.276s200.626 448.275 448.275 448.275c247.65 0 448.276-200.626 448.276-448.275 0-247.65-200.627-448.276-448.276-448.276z" glyph-name="panel-open" horiz-adv-x="1000" unicode=""/><glyph d="M274.143 1000h-124.61V214.953H0L214.953 0l214.954 214.953H274.143V1000zm376.947 0L436.137 785.047h152.648V0h124.61v785.047h152.649L651.09 1000z" glyph-name="order-sort" horiz-adv-x="862.928" unicode=""/><glyph d="M274.143 1000h-124.61V214.953H0L214.953 0l214.954 214.953H274.143V1000zm576.324-785.047V342.68h-56.074l56.074-127.726zM510.903 1000l31.153-68.536h308.411V1000H510.903zm87.228-202.492h252.336v71.65H570.093l28.038-71.65zm112.15-261.682h137.071v68.535H679.128l31.152-68.535zm59.19-130.842h80.996v68.536h-112.15l31.153-68.536zM654.205 666.667h193.146v71.65H623.053l31.153-71.65z" glyph-name="order-desc" horiz-adv-x="850.467" unicode=""/><glyph d="M274.143 1000h-124.61V214.953H0L214.953 0l214.954 214.953H274.143V1000zm236.76 0V872.274h56.075L510.903 1000zm308.412-716.51H510.903v-68.537h336.449l-28.037 68.536zM763.24 417.444H510.903v-71.65h280.374l-28.037 71.65zM651.09 679.128H514.02v-68.536h168.224l-31.153 68.536zm-59.19 130.84h-80.997v-68.535h112.15L591.9 809.969zm115.265-261.681H514.02V479.75h224.299l-31.153 68.536z" glyph-name="order-asc" horiz-adv-x="850.467" unicode=""/><glyph d="M465.116 159.468v39.868c-13.289-13.29-26.578-29.9-39.867-39.868v-39.867c0-9.966 9.967-19.933 19.934-19.933h192.69v39.867H485.05c-9.967 0-19.934 9.967-19.934 19.933zm-39.867 734.22v-235.88l39.867-39.868v232.558c0 9.967 9.967 19.934 19.934 19.934h152.824v43.19H445.183c-9.967 0-19.934-9.968-19.934-19.934zm491.695 26.578L697.674 1029.9c-9.966 6.645-19.933 0-19.933-13.289V-9.967c0-9.967 9.967-16.611 19.933-9.967l219.27 109.635c9.966 6.645 19.933 19.934 19.933 29.9v770.764c0 13.29-9.967 26.579-19.933 29.9zm-176.08-488.372c-13.29 0-23.256 9.966-23.256 23.256 0 13.289 9.967 23.255 23.256 23.255s23.256-9.966 23.256-23.255c0-13.29-9.967-23.256-23.256-23.256zm-136.213-9.967L345.515 681.063c-6.645 6.645-13.29 6.645-13.29-6.644V574.75c0-9.967-9.966-19.934-19.933-19.934H93.023c-9.967 0-19.933-9.967-19.933-19.933V292.359c0-9.967 9.966-19.934 19.933-19.934H308.97c9.967 0 19.934-9.967 19.934-19.933V142.857c0-9.967 6.644-13.289 13.289-6.644L604.65 392.027c6.645 6.644 6.645 19.933 0 29.9z" glyph-name="login" horiz-adv-x="1043.189" unicode=""/><glyph d="M800.643 893.89L591.64 996.786c-9.646 3.215-19.293 0-19.293-9.647V12.862c0-9.647 9.647-16.077 19.293-9.647L800.643 106.11c9.646 6.431 19.293 19.293 19.293 28.94v729.903c-3.216 12.862-9.647 25.723-19.293 28.939zM633.441 427.654c-12.862 0-22.509 9.646-22.509 22.508 0 12.862 9.647 22.508 22.509 22.508 12.861 0 22.508-9.646 22.508-22.508 0-9.647-9.647-22.508-22.508-22.508zm-260.45-254.02v38.586l-38.586-38.586v-35.37c0-9.646 9.646-19.292 19.293-19.292h183.28v38.585H392.282c-12.862-6.43-19.293 3.216-19.293 16.077zm-38.586 691.319v-225.08l38.585-38.586v225.08c0 9.647 9.647 19.293 19.293 19.293h144.694v41.8h-183.28c-12.861 0-19.292-9.645-19.292-22.507zm176.849-578.778V514.47c0 9.647-9.646 19.293-19.293 19.293H286.174c-9.647 0-19.293 9.646-19.293 19.293v106.109c0 9.646-6.43 12.862-12.862 6.43L6.431 421.223C0 414.79 0 401.929 6.43 392.283L250.804 147.91c6.43-9.646 12.862-6.43 12.862 6.43v96.464c0 9.646 9.646 19.292 19.292 19.292h205.788c12.862-3.215 22.508 6.431 22.508 16.078z" glyph-name="logout" horiz-adv-x="816.72" unicode=""/><glyph d="M283.912-3.155h75.71V1006.31h-75.71V-3.155zm167.192 0h75.71V1006.31h-75.71V-3.155zm170.347 1006.31V-6.31h75.71v1009.464h-75.71z" glyph-name="grip" horiz-adv-x="990.536" unicode=""/><glyph d="M1000 1000H0V849.53l420.063-420.063V0l163.01 131.661v297.806L1000 849.53z" glyph-name="filter" horiz-adv-x="1000" unicode=""/><glyph d="M500 1000C222.58 1000 0 774.194 0 500 0 222.58 222.58 0 500 0c277.42 0 500 222.58 500 500 0 274.194-222.58 500-500 500zm270.968-706.452l-64.516-64.516L500 435.484 293.548 229.032l-64.516 64.516L435.484 500 232.258 706.452l64.516 64.516 206.452-206.452 206.451 206.452 64.517-64.516L567.742 500l203.226-206.452z" glyph-name="close" horiz-adv-x="1000" unicode=""/><glyph d="M996.845 583.596H580.442v419.559H406.94V583.596H-9.464V413.25H406.94V-6.309h173.502v419.558h416.403z" glyph-name="add" horiz-adv-x="990.536" unicode=""/><glyph d="M-12.618 981.073V810.726H996.845v170.347H-12.618zm0-264.985V545.741H996.845v170.347H-12.618zm0-261.83V283.913H996.845V454.26H-12.618zM1000 189.275H-9.464V18.927H1000c-3.155 0-3.155 170.347 0 170.347z" glyph-name="cols" horiz-adv-x="990.536" unicode=""/><glyph d="M1023.256 910.299h-79.734V823.92c0-39.867-33.223-73.09-73.09-73.09h-39.867c-39.867 0-73.09 33.223-73.09 73.09v86.38H322.26v-86.38c0-39.867-33.222-73.09-73.09-73.09h-39.867c-43.189-3.322-76.412 29.9-76.412 69.768v89.701H19.934c-16.612 0-26.579-13.289-26.579-26.578V16.61C-6.645 0 6.645-9.967 19.934-9.967h1006.644c16.611 0 26.578 13.29 26.578 26.578V880.4a29.776 29.776 0 01-29.9 29.9zM976.744 76.412H69.767V661.13h906.977V76.412zM209.302 794.02h39.867c16.612 0 26.579 13.289 26.579 26.578v176.08c0 16.611-13.29 26.578-26.579 26.578h-39.867c-16.611 0-26.578-13.29-26.578-26.578v-176.08c-3.322-13.289 9.967-26.578 26.578-26.578zm621.263 0h39.867c16.611 0 26.578 13.289 26.578 26.578v176.08c0 16.611-13.29 26.578-26.578 26.578h-39.867c-16.612 0-26.578-13.29-26.578-26.578v-176.08c-3.323-13.289 9.966-26.578 26.578-26.578zm-617.94-172.758H106.312V514.95h106.313v106.312zm285.714 0H392.027V514.95h106.312v106.312zm142.857 0H534.884V514.95h106.312v106.312zm285.714 0H820.598V514.95H926.91v106.312zm-571.428-132.89H249.169v-102.99h106.313v102.99zm142.857 0H392.027v-102.99h106.312v102.99zm285.714 0h-102.99v-102.99h102.99v102.99zm142.857 0H820.598v-102.99H926.91v102.99zM212.625 352.16H106.312V245.847h106.313V352.16zm142.857 0H249.169V245.847h106.313V352.16zm285.714 0H534.884V245.847h106.312V352.16zm285.714 0H820.598V245.847H926.91V352.16zM355.482 215.947H249.169V109.635h106.313v106.312zm142.857 0H392.027V109.635h106.312v106.312zm285.714 0h-102.99V109.635h102.99v106.312zm142.857 0H820.598V109.635H926.91v106.312z" glyph-name="calender" horiz-adv-x="1043.189" unicode=""/><glyph d="M-9.967 1036.545V-26.578h1063.123v1063.123H-9.967zm883.721-631.23h-249.17V156.147H421.928v249.17H169.435v202.657h249.17v249.17h202.657v-249.17h249.17l3.322-202.657z" glyph-name="plus" horiz-adv-x="1043.189" unicode=""/><glyph d="M-9.967 1036.545V-26.578h1063.123v1063.123H-9.967zm428.572-631.23h-249.17v202.658h704.32V405.316h-455.15z" glyph-name="minus" horiz-adv-x="1043.189" unicode=""/><glyph d="M978.333 840.417c0-54.584-44.166-98.75-98.75-98.75-54.583 0-98.75 44.166-98.75 98.75s48.75 98.75 102.917 98.75c54.583 0 94.583-44.167 94.583-98.75zM96.25 682.917v-553.75h289.583v122.916l193.334-122.916h319.166v222.916L413.75 682.917m565 69.583L684.583 588.75 433.333 757.5H20.417V66.667h430.416v64.583l95-64.583h430.834V392.5h-.417l2.5 360zm-33.333-655l-391.25.417-134.584 88.333V97.917h-367.5V726.25H423.75l521.667-350.417V97.5z" glyph-name="nikkei" horiz-adv-x="1000" unicode=""/><glyph d="M965.3 523.66c-3.155 0-9.464 3.154-15.773 0 15.773 25.236 37.855 53.627 37.855 91.482 3.154 44.164-25.237 85.173-72.556 82.019-47.318 0-85.173-37.855-110.41-63.092-9.463-9.463-18.927-22.082-28.39-28.39-31.547 135.646-100.947 230.283-223.976 274.447 0 47.319-18.927 75.71-53.627 88.328 0 3.155-3.155 6.31-6.31 6.31 3.155 3.154 0 9.463 0 12.618-3.154 9.463-6.309 12.618-12.618 12.618-25.236-6.31-18.927-41.01 6.31-37.855 9.463 0 9.463 6.31 15.772 6.31 18.928-18.928 41.01-37.856 37.855-78.865-44.164 12.618-100.946 3.154-138.801-12.618-12.618 41.01-41.01 69.4-88.328 69.4 3.154 15.773-3.155 22.082-15.773 22.082-28.391 0-18.927-50.473 12.618-41.01 6.31 3.155 6.31 6.31 12.619 12.62 34.7-12.62 59.936-31.547 69.4-69.402-97.792-47.318-151.42-135.646-182.965-246.056-18.928 6.309-41.01-9.464-63.092-9.464v6.31c15.773 9.463-3.154 59.936-12.618 66.245-9.464 6.31-15.773 12.618-31.546 9.464-47.318-6.31-66.246-72.555-59.937-129.338C18.927 548.896-3.155 520.505 0 479.495c3.155-34.7 22.082-63.091 37.855-85.173-25.237-44.164 22.082-85.174 37.855-110.41-31.546-56.783-6.31-148.265 66.246-138.802 22.082 3.155 31.546 12.619 47.318 25.237C242.902 91.483 321.767 18.927 438.486 0 580.442-18.927 671.924 44.164 738.17 116.72c75.71-25.237 132.492 15.772 157.73 72.554 25.236 50.474 41.009 107.256 37.854 170.347 9.464 15.773 22.082 34.7 34.7 56.783 18.928 31.546 41.01 91.482-3.154 107.255zM145.11 261.83s0 3.154 0 0c-3.154 6.309-3.154 9.463-3.154 12.618 0-3.155 3.154-6.31 3.154-12.618zm6.31-18.928c6.309-9.464 12.618-22.082 15.772-31.546-3.154 9.464-6.309 15.773-12.618 25.237 0 3.155 0 3.155-3.154 6.31z" glyph-name="tps-char" horiz-adv-x="990.536" unicode=""/><glyph d="M508.306 588.04c-43.19 0-83.057-36.545-83.057-83.057 0-43.189 36.545-83.056 83.057-83.056 43.189 0 83.056 36.545 83.056 83.056s-39.867 83.057-83.056 83.057zm315.614 445.183H222.591c-129.568 0-232.558-99.668-232.558-229.236v-601.33c0-126.245 102.99-229.235 229.236-229.235h601.329c126.246 0 229.236 102.99 229.236 229.236v601.329c0 129.568-99.668 229.236-225.914 229.236zm19.934-647.84c-19.934-59.802-69.768-99.669-126.246-99.669-49.834 0-96.346 29.9-116.28 76.412v3.323h-3.321c-26.578-16.612-56.479-26.579-89.701-26.579-93.024 0-169.436 76.412-169.436 169.436s76.412 166.113 169.436 166.113c26.578 0 53.156-6.645 79.734-19.934l3.322-3.322v3.322c0 9.967 6.645 13.29 13.29 13.29h63.122c6.645 0 13.29-3.323 13.29-13.29V408.638c0-16.611 13.288-33.223 33.222-33.223 13.289 0 29.9 16.612 39.867 39.867 9.967 29.9 16.611 59.801 16.611 89.701 0 139.535-112.957 252.492-252.492 252.492S265.781 644.518 265.781 504.983s112.957-252.491 252.491-252.491c26.578 0 53.157 3.322 79.735 13.289l19.933 6.644c6.645 3.323 16.611 0 16.611-6.644l19.934-59.8c3.322-9.968-3.322-16.612-6.644-16.612l-19.934-6.645c-33.223-9.967-69.767-16.611-106.312-16.611-189.37 0-345.515 152.824-345.515 345.515s156.146 338.87 345.515 338.87S867.11 697.674 867.11 504.983c0-39.867-9.967-79.734-23.256-119.6z" glyph-name="lineat" horiz-adv-x="1043.189" unicode=""/><glyph d="M860.465 1036.545h-677.74c-106.313 0-192.692-86.379-192.692-192.691V169.435c0-106.312 86.379-192.69 192.691-192.69h677.741c106.312 0 192.691 86.378 192.691 192.69v674.419c0 106.312-86.379 192.69-192.69 192.69zM823.92 358.804c-79.734-93.023-262.458-205.98-305.648-225.914-39.867-16.61-36.544 9.967-33.222 19.934 0 6.644 6.644 33.223 6.644 33.223 0 9.966 3.323 26.578 0 36.544-3.322 9.967-19.933 16.612-33.222 19.934C269.103 265.78 132.89 398.67 132.89 551.495c0 172.757 172.758 315.615 385.382 315.615s388.705-139.535 388.705-315.615c0-69.767-26.578-129.568-83.057-192.691zM441.86 634.551h-26.578c-3.322 0-6.644-3.322-6.644-6.644V458.472c0-3.322 3.322-6.645 6.644-6.645h26.578c3.323 0 6.645 3.323 6.645 6.645v169.435c0 3.322-3.322 6.644-6.645 6.644zm186.047 0h-26.578c-3.322 0-6.645-3.322-6.645-6.644v-99.668l-76.412 102.99h-26.578c-3.322 0-6.644-3.322-6.644-6.644V455.15c0-3.323 3.322-6.645 6.644-6.645h26.578c3.323 0 6.645 3.322 6.645 6.645v99.667l76.412-102.99 3.322-3.322h29.9c3.323 0 6.645 3.322 6.645 6.645v169.435c-6.645 6.644-9.967 9.966-13.289 9.966zM375.415 495.017h-73.09v132.89c0 3.322-3.322 6.644-9.966 6.644H265.78c-3.323 0-6.645-3.322-6.645-6.644V458.472c0-3.322 0-3.322 3.322-6.645 0 0 3.323-3.322 6.645-3.322h109.635c3.322 0 6.644 3.322 6.644 6.645v26.578c-3.322 9.966-6.644 13.289-9.967 13.289zM777.41 634.55H664.452s-3.322-3.322-3.322-6.644V458.472c0-3.322 0-3.322 3.322-6.645 0 0 3.322-3.322 6.644-3.322h109.635c3.322 0 6.644 3.322 6.644 6.645v26.578c0 3.322-3.322 6.644-6.644 6.644h-73.09v29.9h73.09c3.322 0 6.644 3.323 6.644 6.645v26.578c0 3.322-3.322 6.645-6.644 6.645h-73.09v29.9h73.09c3.322 0 6.644 3.322 6.644 6.644v26.578c-3.322 9.967-6.644 13.29-9.966 13.29z" glyph-name="line" horiz-adv-x="1043.189" unicode=""/><glyph d="M1049.834 504.983c0 292.36-235.88 528.24-528.24 528.24S-6.644 797.343-6.644 504.983c0-262.458 192.692-481.727 445.183-518.272v365.448h-132.89v152.824h132.89v116.28c0 132.89 79.734 205.98 199.336 205.98 59.8 0 116.279-13.29 116.279-13.29V684.385h-66.445c-66.446 0-86.38-39.867-86.38-83.056V501.66h146.18l-23.256-152.824H601.33v-368.77c252.492 43.189 448.505 262.458 448.505 524.916z" glyph-name="facebook" horiz-adv-x="1043.189" unicode=""/><glyph d="M1026.578 760.797c-13.289 46.512-46.512 83.057-93.023 93.024-83.057 23.255-411.96 23.255-411.96 23.255s-328.904 0-411.96-23.255c-46.512-9.967-83.057-46.512-93.024-93.024C-6.645 677.741-6.645 504.983-6.645 504.983s0-172.757 23.256-255.814c13.29-46.511 46.512-83.056 93.024-93.023 83.056-23.256 411.96-23.256 411.96-23.256s328.903 0 411.96 23.256c46.511 13.29 79.734 46.512 93.023 93.023 23.256 83.057 23.256 255.814 23.256 255.814s-3.322 172.758-23.256 255.814zM411.96 348.837V661.13l275.748-156.147L411.96 348.837z" glyph-name="youtube" horiz-adv-x="1043.189" unicode=""/><glyph d="M787.375 903.654c-149.501 0-259.136-73.09-259.136-73.09s-106.312 73.09-259.136 73.09c-149.502 0-259.136-73.09-259.136-73.09V86.38s106.312 73.09 259.136 73.09c149.502 0 259.136-73.09 259.136-73.09s106.312 73.09 259.136 73.09 259.137-73.09 259.137-73.09v744.186c-3.323 0-109.635 73.09-259.137 73.09z" glyph-name="book" horiz-adv-x="1043.189" unicode=""/><glyph d="M899.054 498.423c0 50.473 41.01 94.637 94.637 94.637v205.047a28.273 28.273 0 01-28.391 28.391H741.325v-63.091c-3.155-9.464-9.464-15.773-15.773-15.773-9.464 0-15.773 6.31-15.773 15.773v63.091H28.391A28.273 28.273 0 010 798.108V201.892a28.273 28.273 0 0128.391-28.391H709.78v44.164c0 9.463 6.31 15.772 15.773 15.772s15.773-6.309 15.773-15.772v-44.164H965.3a28.273 28.273 0 0128.39 28.39V406.94c-53.627 0-94.636 41.01-94.636 91.483zM738.17 277.603c0-9.464-6.309-15.773-15.773-15.773-9.463 0-15.772 6.309-15.772 15.773v59.936c0 9.464 6.309 15.773 15.772 15.773s15.773-6.309 15.773-15.773v-59.936zm0 119.873c0-9.463-6.309-15.773-15.773-15.773-9.463 0-15.772 6.31-15.772 15.773v59.937c0 9.464 6.309 15.773 15.772 15.773s15.773-6.309 15.773-15.773v-59.937zm0 123.029c0-9.464-6.309-15.773-15.773-15.773-9.463 0-15.772 6.309-15.772 15.773v59.937c0 9.463 6.309 15.773 15.772 15.773s15.773-6.31 15.773-15.773v-59.937zm0 119.874c0-9.464-6.309-15.773-15.773-15.773-9.463 0-15.772 6.309-15.772 15.773v63.091c0 9.464 6.309 15.773 15.772 15.773s15.773-6.31 15.773-15.773v-63.091z" glyph-name="ticket" horiz-adv-x="990.536" unicode=""/><glyph d="M963.455 681.063c-36.545 0-66.445-23.256-76.412-56.478l-202.658 63.123L568.106 853.82c19.934 13.289 33.223 39.867 33.223 66.445 0 43.19-36.545 79.734-79.734 79.734s-79.735-36.545-79.735-79.734c0-26.578 13.29-53.156 33.223-66.445L358.804 687.708l-202.658-63.123c-9.967 33.222-39.867 56.478-76.412 56.478C36.544 681.063 0 644.518 0 598.007s36.545-79.735 79.734-79.735c19.934 0 36.545 6.645 49.834 19.934L259.136 382.06l-6.644-219.27h-3.323c-43.189 0-79.734-36.544-79.734-79.734S205.98 3.322 249.17 3.322s79.735 36.545 79.735 79.734c0 9.967-3.323 19.934-6.645 29.9l196.013 79.735 199.336-79.734c-3.322-9.967-6.645-19.934-6.645-29.9 0-43.19 36.545-79.735 79.735-79.735s79.734 36.545 79.734 79.734-36.545 79.735-79.734 79.735h-3.323L777.41 382.06l129.568 156.146c13.289-9.967 33.222-19.934 49.834-19.934 43.189 0 79.734 36.545 79.734 79.735s-29.9 83.056-73.09 83.056z" glyph-name="achievement" horiz-adv-x="1043.189" unicode=""/><glyph d="M774.086 661.13c-358.804-86.38-498.338-328.904-498.338-328.904s0 132.89 19.933 245.847c29.9-6.644 63.123 0 93.023 19.934 0 0 3.323 0 3.323 3.322l3.322 3.322c9.967 6.645 16.611 13.29 23.256 23.256 3.322 3.322 6.644 6.644 6.644 9.967 3.322 3.322 6.645 9.967 9.967 13.289 46.512 66.445 56.478 146.18 33.223 209.302-9.967 26.578-23.256 46.512-43.19 66.445-6.644 6.645-13.289 13.29-23.256 19.934-6.644 6.644-16.61 9.967-26.578 13.289-16.611 16.611-43.19 23.256-69.767 19.933-69.768 0-139.535-36.544-186.047-102.99-3.322-3.322-6.644-9.966-9.966-13.289-3.323-3.322-6.645-6.644-6.645-9.966-3.322-9.967-9.967-16.612-9.967-26.578C-26.578 647.84-29.9 136.213 26.578 79.734c63.123-63.123 930.233-106.312 1000 156.146 79.734 295.681-49.834 475.083-252.492 425.25z" glyph-name="muscle" horiz-adv-x="1043.189" unicode=""/><glyph d="M1049.834 568.106s0 3.323 0 0c0 13.29 0 19.934-3.322 29.9-3.323 26.579-6.645 53.157-16.612 79.735-3.322 13.289-9.966 26.578-16.611 39.867-53.156 102.99-159.468 172.757-282.392 172.757-6.645 0-13.289 0-19.934-3.322-36.544-3.322-69.767-9.967-99.667-19.933-3.323 0-3.323 0-6.645-3.323-23.256-9.966-49.834-13.289-76.412-16.61 6.645 46.51 26.578 89.7 56.479 126.245-6.645 9.967-16.612 19.933-19.934 29.9-36.545-43.19-63.123-96.345-69.767-152.824-19.934 3.323-36.545 6.645-53.157 13.29-3.322 0-3.322 0-6.644 3.322-29.9 13.289-66.445 19.933-99.668 19.933-6.644 0-13.289 3.322-19.933 3.322-129.568 0-242.525-79.734-292.36-192.69 0-3.323-3.321-6.645-3.321-9.967s-3.323-6.645-3.323-9.967C6.645 651.163 3.322 624.585 0 598.007c0-9.967-3.322-16.612-3.322-26.578v-3.323c0-13.289-3.323-26.578-3.323-43.19 0-189.368 102.99-358.803 252.492-451.826C305.647 36.545 372.093 13.289 445.183 0c26.578-3.322 49.834-6.645 76.412-6.645 26.578 0 53.156 3.323 76.412 6.645 73.09 9.967 139.535 36.545 199.335 73.09 152.824 93.023 252.492 259.136 252.492 448.505 3.322 16.611 0 33.222 0 46.511z" glyph-name="apple" horiz-adv-x="1043.189" unicode=""/><glyph d="M554.817 1026.578c-269.103 0-488.372-219.269-488.372-488.372 0-136.213 53.156-259.136 142.857-345.515L-3.322-19.934 382.06 83.056c53.156-19.933 112.957-33.222 172.757-33.222 269.103 0 488.372 219.269 488.372 488.372 3.323 269.103-215.946 488.372-488.372 488.372z" glyph-name="baloon" horiz-adv-x="1043.189" unicode=""/><glyph d="M787.375 920.266c-156.146 0-265.78-73.09-265.78-73.09s-109.635 73.09-265.781 73.09-265.78-73.09-265.78-73.09V86.38s109.634 73.09 265.78 73.09 265.78-73.09 265.78-73.09 109.635 73.09 265.781 73.09 265.781-73.09 265.781-73.09v760.797c-3.322 0-112.957 73.09-265.78 73.09zM578.073 382.06l-59.8-33.223-136.213-79.734v458.472l139.535-79.734 59.8-33.223 199.336-116.28L578.073 382.06z" glyph-name="book-play" horiz-adv-x="1043.189" unicode=""/><glyph d="M737.542 1036.545H305.648c-89.701 0-159.469-73.09-159.469-159.469v-750.83c0-89.701 73.09-159.469 159.469-159.469h431.894c89.7 0 159.468 73.09 159.468 159.469v750.83c0 86.38-73.09 159.469-159.468 159.469zm69.767-973.422h-574.75v877.076h574.75V63.123zM338.87 764.12c39.868 0 73.09 33.222 73.09 73.09s-33.222 73.089-73.09 73.089-73.09-29.9-73.09-73.09c0-39.867 33.223-73.09 73.09-73.09zm182.725 0c39.867 0 73.09 33.222 73.09 73.09s-33.223 73.089-73.09 73.089-73.09-33.223-73.09-73.09 33.223-73.09 73.09-73.09zM338.87 571.429c39.868 0 73.09 33.222 73.09 73.09s-33.222 73.089-73.09 73.089c-39.867 3.322-73.09-29.9-73.09-69.767 0-43.19 33.223-76.412 73.09-76.412zm182.725 0c39.867 0 73.09 33.222 73.09 73.09s-33.223 73.089-73.09 73.089-73.09-33.223-73.09-73.09 33.223-73.09 73.09-73.09zm182.724 192.69c39.867 0 73.09 33.223 73.09 73.09s-33.223 73.09-73.09 73.09-73.09-29.9-73.09-73.09c0-39.867 33.223-73.09 73.09-73.09z" glyph-name="smp" horiz-adv-x="1043.189" unicode=""/><glyph d="M780.73 46.512H637.875v249.17h-249.17v142.856h249.17v249.17H780.73V438.539h93.023v33.222h176.08l-531.562 531.561L-13.29 471.761h179.402V6.645h710.963V295.68h-93.023c-3.322-33.223-3.322-249.17-3.322-249.17zm-19.933 621.262h-102.99v-249.17h-249.17v-102.99h249.17V66.446h102.99v249.17h249.17v102.99h-249.17v249.17z" glyph-name="growup" horiz-adv-x="1043.189" unicode=""/><glyph d="M847.176 375.415h132.89c3.323 13.29 6.645 29.9 9.967 43.19l-136.212-29.9c-3.323-3.323-6.645-9.967-6.645-13.29zm93.023-99.667H797.342l-3.322-3.323 129.568-26.578c3.322 9.967 9.967 19.934 16.611 29.9zM491.694 119.6c-205.98 0-375.415 169.436-375.415 375.416h750.83l126.246 26.578c-6.644 269.103-225.913 488.372-501.66 488.372S-9.968 784.053-9.968 508.306c0-279.07 225.914-501.661 501.661-501.661 142.857 0 269.103 59.8 362.127 152.823l-146.18 29.9c-59.8-43.189-132.89-69.767-215.947-69.767zm299.004 601.33c36.545 0 63.123-29.901 63.123-63.124 0-36.545-29.9-63.123-63.123-63.123-36.545 0-63.123 29.9-63.123 63.123-3.323 33.223 26.578 63.123 63.123 63.123zm-601.33 0c36.546 0 63.124-29.901 63.124-63.124 0-36.545-29.9-63.123-63.123-63.123-36.545 0-63.123 29.9-63.123 63.123s26.578 63.123 63.123 63.123zm508.306-279.07l9.967-63.123 149.502 29.9 132.89 26.578 56.479 9.967-9.967 63.123-39.867-3.323-129.568-26.578-169.436-36.545zm9.967-83.057v-66.445h342.193v66.445H707.64zm73.09-102.99l-73.09 16.611-9.967-63.123 26.578-6.644 142.858-29.9 169.435-36.545 9.967 63.123-132.89 26.578-132.891 29.9z" glyph-name="speak" horiz-adv-x="1043.189" unicode=""/><glyph d="M852.083 615.417c-4.166 7.5-11.25 14.166-17.916 20.416-2.084 2.084-4.167 3.75-5.834 5.834L816.25 653.75l-36.667-39.167v-390c0-45-37.916-82.916-82.916-82.916H168.333c-44.583 0-80.833 37.083-80.833 82.916v451.25c0 45.417 36.25 82.5 80.833 82.5h492.5c3.75 0 7.084 0 9.584-.416l52.5-9.167-37.5 37.5C675 796.667 665 806.667 656.25 815.833c-6.25 6.25-11.667 12.084-16.667 17.084l-5 5h-466.25C80 837.5 8.333 765 8.333 675.833v-451.25c0-87.083 71.667-157.916 160-157.916H696.25c88.75 0 157.917 69.583 157.917 157.916v387.084l-2.084 3.75zm82.084 280.416h-242.5c-28.334 0-100.417 0-52.084-48.333 0 0 10.834-10.833 28.334-27.917l45.833-45.833 45-45-437.083-437.5L380 232.917l415.417 415.416 22.083 22.084 22.5-22.5c42.083-42.084 77.5-77.917 91.667-92.5 43.333-43.75 47.5 23.75 47.5 51.666V850c0 27.917-16.667 45.833-45 45.833z" glyph-name="outlink" horiz-adv-x="1000" unicode=""/><glyph d="M418.333 720L382.5 672.083 611.25 500 382.5 327.917 418.333 280l292.5 220zM500 995.833C226.667 995.833 4.167 773.333 4.167 500S226.667 4.167 500 4.167 995.833 226.667 995.833 500 773.333 995.833 500 995.833zm0-915.416C268.75 80.417 80.417 268.75 80.417 500c0 231.25 188.333 419.167 419.583 419.167S919.583 731.25 919.583 500 731.25 80.417 500 80.417z" glyph-name="link" horiz-adv-x="1000" unicode=""/><glyph d="M112.5 875h775V691.667h-775V875zm0-583.333h775V108.333h-775v183.334zm0 291.666h775V400h-775v183.333z" glyph-name="menu" horiz-adv-x="1000" unicode=""/><glyph d="M1053.156 425.25L853.821 624.584v299.003H720.93V757.475L521.594 956.811-9.967 425.249v-33.222h132.89V59.8H455.15v199.335h132.89V59.801h332.226v332.226h132.89v33.222z" glyph-name="home" horiz-adv-x="1043.189" unicode=""/><glyph d="M1049.834 823.92c0 6.645 0 13.29-3.322 16.612-6.645 6.644-13.29 9.966-19.934 6.644H23.256c-6.645 0-16.611 0-19.934-6.644S-3.322 827.242 0 823.92V182.724a29.776 29.776 0 0129.9-29.9h996.678a29.776 29.776 0 0129.9 29.9v637.874l-6.644 3.322zM501.66 405.316c9.967-9.967 29.9-9.967 39.867 0l465.117 378.737V199.336h-970.1v584.717L501.66 405.316zM76.412 807.309h890.365L521.595 445.183 76.412 807.309z" glyph-name="mail" horiz-adv-x="1043.189" unicode=""/><glyph d="M186.12 343.849c-85.174 0-154.574-69.401-154.574-154.575S100.946 34.7 186.12 34.7s154.574 69.4 154.574 154.574-69.4 154.575-154.574 154.575zm0 195.583v-104.1c135.647 3.154 246.057-107.256 246.057-246.058h104.1c0 192.43-157.728 350.158-350.157 350.158zm0 214.511V637.224c246.057 3.155 447.95-198.738 447.95-447.95h116.719c0 312.303-252.366 564.67-564.67 564.67zm552.05-9.464C589.905 889.59 394.322 971.61 186.12 971.61V854.89c176.656 0 343.848-69.4 470.031-192.428C782.334 536.279 851.735 369.086 851.735 192.43h116.72c0 208.202-82.02 403.786-230.285 552.05z" glyph-name="feed" horiz-adv-x="990.536" unicode=""/></font>
</defs>
</svg>
